Forum Romania Inedit
Romania Inedit - Resursa ta de Fun
Lista Forumurilor Pe Tematici
Forum Romania Inedit | Lista de useri | Cauta | Inregistrare | Login

CHAT GENERAL | CHAT ROMANIA-INEDIT | POZE ROMANIA-INEDIT

Nu sunteti logat.
Nou pe simpatie.ro:
ralukjustme
Femeie
25 ani
Valcea

cauta Barbat
25 - 36 ani

Forum Romania Inedit / Filme Documentare / BBC - The Incredible Human Journey (2009) Moderat de 80Inanna, calincalin  
Autor
Mesaj Pagini: 1
nch
Online
Moderator
Mesaj Privat

Inregistrat: 04-02-2008
BBC - The Incredible Human Journey (2009) [ HDTV ]

English | 720p | MKV | x264 1280x720 3148Kbps 25fps | Dolby AC3 384Kbps 2CH 48KHz | 4ep x 1.45GB

How did we get here? Following a trail of clues from the latest scientific research, Dr Alice Roberts re-traces the greatest ever journey taken by our ancestors. Thousands of years ago one small group of our species, Homo sapiens, crossed out of Africa and into the unknown. Their descendants faced baking deserts, sweat-soaked jungles and frozen wildernesses and risked everything on the vast empty ocean.
Within 60,000 years they colonised the whole world... How did they do it? Why do we, their descendants all look so different? And what did we have that meant we were the only human species to survive?
Using the evidence from genetics, fossils, archaeology and climatology, Dr Alice Roberts uncovers five epic routes our ancestors took across the globe and the obstacles and brutal challenges they encountered along the way. It reveals how our family tree grew and spread out across the world, producing all the variety we see in the human species today – but despite all that diversity, Alice reveals how astonishingly closely related we all are.

Episode 01: Out of Africa
Alice travels to Africa in search of the birthplace of the first people. They were so few in number and so vulnerable that today they would probably be considered an endangered species. So what allowed them to survive at all? The Bushmen of the Kalahari have some answers - the unique design of the human body made them efficient hunters and the ancient click language of the Bushmen points to an early ability to organise and plan.
Humans survived there, but Africa was to all intents and purposes a sealed continent. So how and by what route did humans make it out of Africa? Astonishing genetic evidence reveals that everyone alive today who is not African descends from just one successful, tiny group which left the continent in a single crossing, an event that may have happened around 70 thousand years ago. But how did they do it? Alice goes searching for clues in the remote Arabian Desert.
http://rapidshare.com/files/271548399/T ... .part1.rar
http://rapidshare.com/files/271548643/T ... .part2.rar
http://rapidshare.com/files/271542914/T ... .part3.rar
http://rapidshare.com/files/271549395/T ... .part4.rar
http://rapidshare.com/files/271543686/T ... .part5.rar
http://rapidshare.com/files/271550405/T ... .part6.rar
http://rapidshare.com/files/271545514/T ... .part7.rar
http://rapidshare.com/files/271549772/T ... .part8.rar


Episode 02: Asia
In this programme, the journey continues into Asia, the world's greatest land mass, in a quest to discover how early hunter-gatherers managed to survive in one of the most inhospitable places on earth - the Arctic region of Northern Siberia. Alice meets the nomadic Evenki people, whose lives are dictated by reindeer, both wild and domesticated, and discovers that the survival techniques of this very ancient people have been passed down through generations. Alice also explores what may have occurred during human migration to produce Chinese physical characteristics, and considers a controversial claim about Chinese evolution: that the Chinese do not share the same African ancestry as other peoples.
http://rapidshare.com/files/271545754/T ... .part1.rar
http://rapidshare.com/files/271544138/T ... .part2.rar
http://rapidshare.com/files/271552379/T ... .part3.rar
http://rapidshare.com/files/271550741/T ... .part4.rar
http://rapidshare.com/files/271543819/T ... .part5.rar
http://rapidshare.com/files/271546065/T ... .part6.rar
http://rapidshare.com/files/271552747/T ... .part7.rar
http://rapidshare.com/files/271545168/T ... .part8.rar


Episode 03: Europe
When our species first arrived in Europe, the peak of the Ice Age was approaching and the continent was already crawling with a rival: stronger, at home in the cold and even (contrary to their popular image) brainier than us. So how did the European pioneers survive first the Neanderthals and then the deep freeze as they pushed across the continent?
Alice Roberts reconstructs the head of the 'first European' to come face to face with one of our ancestors; she discovers how art became crucial for survival in the face of Neanderthal competition; and what happened to change the skin colour of these European pioneers from black to white. Finally, spectacular new finds on the edge of Europe suggest that the first known temples may have been a spark for a huge revolution in our ancestors' way of life - agriculture.
http://rapidshare.com/files/271543148/T ... .part1.rar
http://rapidshare.com/files/271547438/T ... .part2.rar
http://rapidshare.com/files/271541829/T ... .part3.rar
http://rapidshare.com/files/271546702/T ... .part4.rar
http://rapidshare.com/files/271552708/T ... .part5.rar
http://rapidshare.com/files/271541905/T ... .part6.rar
http://rapidshare.com/files/271545684/T ... .part7.rar
http://rapidshare.com/files/271547518/T ... .part8.rar



Episode 04: Australia
Alice looks at our ancestors' seemingly impossible journey to Australia. Miraculously preserved footprints and very old human fossils buried in the outback suggest a mystery: that humans reached Australia almost before anywhere else. How could they have travelled so far from Africa, crossing the open sea on the way, and do it thousands of years before they made it to Europe? The evidence trail is faint and difficult to pick up, but Alice takes on the challenge. In India, new discoveries among the debris of a super volcano hint that our species started the journey much earlier than previously thought, while in Malaysia, genetics points to an ancient trail still detectable in the DNA of tribes today. Alice travels deep into the Asian rainforests in search of the first cavemen of Borneo and tests out a Stone Age raft to see whether sea travel would have been possible thousands of years ago, before coming to a powerful conclusion.
http://rapidshare.com/files/271547429/T ... .part1.rar
http://rapidshare.com/files/271541858/T ... .part2.rar
http://rapidshare.com/files/271543539/T ... .part3.rar
http://rapidshare.com/files/271550005/T ... .part4.rar
http://rapidshare.com/files/271544238/T ... .part5.rar
http://rapidshare.com/files/271550549/T ... .part6.rar
http://rapidshare.com/files/271549169/T ... .part7.rar
http://rapidshare.com/files/271549038/T ... .part8.rar


415/582px 43.5KB

Modificat de nch (30-09-2009 20:20:42)


_______________________________________
FELIX QUI QUOD AMAT DEFENDERE FORTITER AUDET
( Fericit este cel ce apara cu tarie ceea ce iubeste )

30-09-2009 20:20:05
   
calincalin
Moderator
Mesaj Privat

Din: Cluj-Napoca
Inregistrat: 17-10-2007
The Incredible Human Journey
Călătoria omului
BBC, 2009, Viasat History rip
subtitrare hard in limba romana



Cānd Homo sapiens a pornit din Africa de Est īntr-o periculoasă călătorie pentru a popula lumea, nu era singura specie umanoidă de pe planetă. Dar a fost singura care a supravieţuit, pānă la final. De ce? Şi cum ne-am schimbat pe parcursul cele mai mari călătorii din istorie, devenind cei care suntem azi?
Acest fascinant serial face cinci călătorii epice pe īntregul glob, urmānd traseele antice ale strămoşilor noştri pentru a dezvălui extraordinarele şi durele provocări cu care s-au confruntat. Folosind ultimele dovezi genetice şi arheologice, arătăm cum oamenii s-au adaptat gradat, cultural şi fizic, ca răspuns la mediul īn care au trăit.

Episodul1: Out of Africa

Pornim īn căutarea primilor oameni şi īncercăm să aflăm cum au reuşit să supravieţuiască īn mediul periculos al Africii preistorice de acum aproximativ 200.000 de ani. Descoperim cum a avansat "tehnologia" oamenilor şi cum, īn cele din urmă, un mic grup - poate chiar un singur trib - a părăsit Africa acum aproximativ 70.000 de ani.



Code:

General
Complete name : The Incredible Human Journey_01.avi
Format : AVI
Format/Info : Audio Video Interleave
File size : 400 MiB
Duration : 48mn 57s
Overall bit rate mode : Variable
Overall bit rate : 1 141 Kbps

Video
ID : 0
Format : MPEG-4 Visual
Format profile : Advanced Simple@L5
Format settings, BVOP : 1
Format settings, QPel : No
Format settings, GMC : No warppoints
Format settings, Matrix : Default (H.263)
Muxing mode : Packed bitstream
Codec ID : XVID
Codec ID/Hint : XviD
Duration : 48mn 57s
Bit rate : 1 016 Kbps
Width : 672 pixels
Height : 400 pixels
Display aspect ratio : 1.680
Frame rate : 25.000 fps
Color space : YUV
Chroma subsampling : 4:2:0
Bit depth : 8 bits
Scan type : Progressive
Compression mode : Lossy
Bits/(Pixel*Frame) : 0.151
Stream size : 356 MiB (89%)
Writing library : XviD 1.2.1 (UTC 2008-12-04)

Audio
ID : 1
Format : MPEG Audio
Format version : Version 1
Format profile : Layer 3
Mode : Joint stereo
Mode extension : MS Stereo
Codec ID : 55
Codec ID/Hint : MP3
Duration : 48mn 57s
Bit rate mode : Variable
Bit rate : 112 Kbps
Channel(s) : 2 channels
Sampling rate : 44.1 KHz
Compression mode : Lossy
Stream size : 39.4 MiB (10%)
Alignment : Aligned on interleaves
Interleave, duration : 26 ms (0.65 video frame)
Interleave, preload duration : 267 ms
Title : calincalin
Writing library : LAME3.99r
Encoding settings : -m j -V 4 -q 2 -lowpass 15.6 --abr 112

Download:

http://www.megaupload.com/?d=PL61QQA3
http://www.megaupload.com/?d=IHDMKAP9
http://www.megaupload.com/?d=U4TNTPI0

=========================================================

Episodul 2: Asia

Continuăm călătoria īn Asia, cel mai īntins continent de pe Pămānt. Cum au reuşit primii vānători-culegători să supravieţuiască īn cāteva din cele mai neospitaliere locuri de pe Pămānt şi de ce au adoptat acest traseu? Un indiciu s-ar putea găsi īn stilul de viaţă al tribului Evenki din nordul Siberiei, a cărui viaţă este strāns legată de reni (atāt domestici, cāt şi sălbatici) şi ale cărui tehnici de supravieţuire par să fi fost transmise din generaţie īn generaţie.



Code:

General
Complete name                            : E:\filme documentare\The Incredible Human Journey_03.avi
Format                                   : AVI
Format/Info                              : Audio Video Interleave
File size                                : 400 MiB
Duration                                 : 49mn 2s
Overall bit rate mode                    : Variable
Overall bit rate                         : 1 139 Kbps

Video
ID                                       : 0
Format                                   : MPEG-4 Visual
Format profile                           : Advanced Simple@L5
Format settings, BVOP                    : 1
Format settings, QPel                    : No
Format settings, GMC                     : No warppoints
Format settings, Matrix                  : Default (H.263)
Muxing mode                              : Packed bitstream
Codec ID                                 : XVID
Codec ID/Hint                            : XviD
Duration                                 : 49mn 2s
Bit rate                                 : 1 015 Kbps
Width                                    : 672 pixels
Height                                   : 400 pixels
Display aspect ratio                     : 1.680
Frame rate                               : 25.000 fps
Color space                              : YUV
Chroma subsampling                       : 4:2:0
Bit depth                                : 8 bits
Scan type                                : Progressive
Compression mode                         : Lossy
Bits/(Pixel*Frame)                       : 0.151
Stream size                              : 356 MiB (89%)
Writing library                          : XviD 1.2.1 (UTC 2008-12-04)

Audio
ID                                       : 1
Format                                   : MPEG Audio
Format version                           : Version 1
Format profile                           : Layer 3
Mode                                     : Joint stereo
Mode extension                           : MS Stereo
Codec ID                                 : 55
Codec ID/Hint                            : MP3
Duration                                 : 49mn 2s
Bit rate mode                            : Variable
Bit rate                                 : 112 Kbps
Channel(s)                               : 2 channels
Sampling rate                            : 44.1 KHz
Compression mode                         : Lossy
Stream size                              : 39.1 MiB (10%)
Alignment                                : Aligned on interleaves
Interleave, duration                     : 26 ms (0.65 video frame)
Interleave, preload duration             : 262 ms
Title                                    : calincalin
Writing library                          : LAME3.99r
Encoding settings                        : -m j -V 4 -q 2 -lowpass 15.6 --abr 112

Download

http://www.megaupload.com/?d=MBFSNLTG
http://www.megaupload.com/?d=KEZNOVR5
http://www.megaupload.com/?d=VF2X8QJK

===================================================================

Episodul 4: Australia

Felul īn care strămoşii noştri au ajuns din Africa tocmai pānă īn Australia, traversānd cel puţin un ocean, este o enigmă. Dar şi mai ciudat este faptul că au ajuns acolo cu mult īnainte să atingă mult mai apropiata Europă. De ce, după ce au supravieţuit erupţiei unui super-vulcan şi s-au luptat cu specii umanoide ostile (aşa cum sugerează urmele găsite), au riscat totul īntr-o periculoasă traversare a oceanului?



Code:

General
Complete name : The Incredible Human Journey_02.avi
Format : AVI
Format/Info : Audio Video Interleave
File size : 400 MiB
Duration : 51mn 35s
Overall bit rate mode : Variable
Overall bit rate : 1 083 Kbps

Video
ID : 0
Format : MPEG-4 Visual
Format profile : Advanced Simple@L5
Format settings, BVOP : 1
Format settings, QPel : No
Format settings, GMC : No warppoints
Format settings, Matrix : Default (H.263)
Muxing mode : Packed bitstream
Codec ID : XVID
Codec ID/Hint : XviD
Duration : 51mn 35s
Bit rate : 958 Kbps
Width : 672 pixels
Height : 400 pixels
Display aspect ratio : 1.680
Frame rate : 25.000 fps
Color space : YUV
Chroma subsampling : 4:2:0
Bit depth : 8 bits
Scan type : Progressive
Compression mode : Lossy
Bits/(Pixel*Frame) : 0.143
Stream size : 354 MiB (88%)
Writing library : XviD 1.2.1 (UTC 2008-12-04)

Audio
ID : 1
Format : MPEG Audio
Format version : Version 1
Format profile : Layer 3
Mode : Joint stereo
Mode extension : MS Stereo
Codec ID : 55
Codec ID/Hint : MP3
Duration : 51mn 35s
Bit rate mode : Variable
Bit rate : 112 Kbps
Channel(s) : 2 channels
Sampling rate : 44.1 KHz
Compression mode : Lossy
Stream size : 41.5 MiB (10%)
Alignment : Aligned on interleaves
Interleave, duration : 26 ms (0.65 video frame)
Interleave, preload duration : 252 ms
Title : calincalin
Writing library : LAME3.99r
Encoding settings : -m j -V 4 -q 2 -lowpass 15.6 --abr 112

Download:

http://www.megaupload.com/?d=1OIY8N7C
http://www.megaupload.com/?d=727RQLW8
http://www.megaupload.com/?d=R9D21V7V

Asa le difuzeaza Viasat -  Saptamana viitoare va difuza Ep2 Asia


_______________________________________
"Cunoaşteţi adevărul, şi adevărul vă va face liberi." (Ioan 8.32)

04-12-2011 21:50:04
E-mail  
stef04
Membru Puf
Mesaj Privat

Inregistrat: 10-12-2011
Excelent documentar, thx !
Rugaminte : te rog sa pui link-urile corecte pentru episodul 2, din pacate sunt tot cele de la episodul 1. Multumesc anticipat.


10-12-2011 05:55:01
   
calincalin
Moderator
Mesaj Privat

Din: Cluj-Napoca
Inregistrat: 17-10-2007
corectat

_______________________________________
"Cunoaşteţi adevărul, şi adevărul vă va face liberi." (Ioan 8.32)

10-12-2011 09:11:17
E-mail  
calincalin
Moderator
Mesaj Privat

Din: Cluj-Napoca
Inregistrat: 17-10-2007
Asia

_______________________________________
"Cunoaşteţi adevărul, şi adevărul vă va face liberi." (Ioan 8.32)

10-12-2011 19:08:49
E-mail  
stef04
Membru Puf
Mesaj Privat

Inregistrat: 10-12-2011
Nu se mai gaseste si partea cu Europa, pls ?

15-01-2012 23:01:37
   
daciaromana
Membru Gold
Mesaj Privat

Inregistrat: 30-01-2012
Este posibil sa reposta-ti episodul cu Europa, va rog?

_______________________________________
Forta crocodilului este apa.

12-11-2012 12:37:30
   
calincalin
Moderator
Mesaj Privat

Din: Cluj-Napoca
Inregistrat: 17-10-2007
Din pacate pe acela nu il am dar chiar acum se redifuzeaza pe Viasat History  de la orele 18 toate cele 4 episoade pana joi. Si daca nu se suprapune cu programul meu osa il capturez si il voi posta dupa prelucrare.

Ar fi bine daca ar mai face cineva capturi. 


_______________________________________
"Cunoaşteţi adevărul, şi adevărul vă va face liberi." (Ioan 8.32)

12-11-2012 16:25:01
E-mail  
Pagini: 1    
  Dezvoltat de 3X Media International
Gazduire Gratuita Forum