Forum Romania Inedit
Romania Inedit - Resursa ta de Fun
Lista Forumurilor Pe Tematici
Forum Romania Inedit | Lista de useri | Cauta | Inregistrare | Login

POZE FORUM ROMANIA INEDIT

Nu sunteti logat.
Nou pe simpatie:
Thedark15
Femeie
23 ani
Bacau
cauta Barbat
25 - 46 ani
Forum Romania Inedit / Filme românesti - Romanian Movies / Baltagul (1969) Moderat de 80Inanna, Silva, bibescu, bronson  
Autor
Mesaj Pagini:  1 2
Hadrianus
VETERAN

Inregistrat: acum 14 ani
Repostez acum toate cele 3 parti.

80Inanna edit: Expirate


_______________________________________
Salvati invatamantul romanesc!!
O chemare la impiedicarea tratarii plagiatului ca normalitate.

pus acum 14 ani
   
cat_4fun
Membru Senior

Din: michigan,usa
Inregistrat: acum 13 ani
http://rapidshare.com/...

LE: Expirate

Modificat de cat_4fun (acum 13 ani)


pus acum 13 ani
   
bibescu
Moderator

Din: depĺrtare
Inregistrat: acum 13 ani
Merci pentru post. Traiasca 7abc! 

_______________________________________
Filme Romanesti facute format DVD de bibescu

#01 - Nunta de piatra (1972)
#02 - Independenta Romaniei (1912)
#04 - Sarutul (1965)
#05 - Un film cu o fata fermecatoare (1966)
#06 - Acordati circumstante atenuante? (1984)
#07 - Mireasa din tren (1980)
#08 - Secretul cifrului (1959)
La filmele romanesti avem CATALOG. Se admite doar un topic pe film.

pus acum 13 ani
   
Silva
Moderator

Inregistrat: acum 14 ani

bibescu a scris:

Merci pentru post. Traiasca 7abc! 

A murit de mult timp... Rest in peace!


_______________________________________
"In politica, prostia nu este un handicap". - Napoleon Bonaparte


pus acum 13 ani
   
bibescu
Moderator

Din: depĺrtare
Inregistrat: acum 13 ani
Scuze- nu stiam. Nu am mai fost in Romania de 7 ani.   

_______________________________________
Filme Romanesti facute format DVD de bibescu

#01 - Nunta de piatra (1972)
#02 - Independenta Romaniei (1912)
#04 - Sarutul (1965)
#05 - Un film cu o fata fermecatoare (1966)
#06 - Acordati circumstante atenuante? (1984)
#07 - Mireasa din tren (1980)
#08 - Secretul cifrului (1959)
La filmele romanesti avem CATALOG. Se admite doar un topic pe film.

pus acum 13 ani
   
80Inanna
Moderator

Din: Mitologie
Inregistrat: acum 14 ani

M*I*H*A*I_JJJ a scris:

intr-un topic nou si inutil din moment ce putea posta aici:

Filmul unui roman foarte apreciat ce pune in evidenta viata oamenilor simplii de la tara si ambitia lor de a face dreptate.Constantin Ciopraga a numit opera Sadoveniana "unitara si diversa ca marea".
Download:

Part1
...

Vizionare placuta       

LE: Expirate


_______________________________________
Verificati toate linkurile înainte de a descărca!  UNELE sunt expirate.
Cataloage FILME românești și TEATRU românesc.
Eu pot descărca de pe: mediafire, zippyshare, uptobox, mega.
NU pot descărca de pe: depositfiles, uploaded, turbobit, letitbit.

pus acum 13 ani
   
Silva
Moderator

Inregistrat: acum 14 ani
Hadrianus, poti sa repostezi Baltagul, te rog? Celelalte versiuni nu sunt extraordinare calitativ...

_______________________________________
"In politica, prostia nu este un handicap". - Napoleon Bonaparte


pus acum 12 ani
   
cipos
MEMBRU DE BAZA

Inregistrat: acum 14 ani
Un alt ripp:

Detalii tehnice:
video .............. Xvid,PAL,640x384,1195kbps
audio .............. 128KB/s,mp3
durata ............. 1:42:37
sursa .............. tv

Link-uri:
http://rapidshare.com/...

LE: Expirate

Imagini din film:


_______________________________________
Parolele la posturile mele sint (fara spatii intre litere):
www. romania inedit.tk
cipos
parola

pus acum 12 ani
   
MISTER2007
Maestru in Filme Romanesti

Inregistrat: acum 13 ani
In sfarsit , un tv rip digi pe masura unei lucrari cinematografice de exceptie . Multumesc lui cipos pentru realizare . 

pus acum 12 ani
   
Silva
Moderator

Inregistrat: acum 14 ani
Multumesc cipos. Il iau acum.

_______________________________________
"In politica, prostia nu este un handicap". - Napoleon Bonaparte


pus acum 12 ani
   
camatar_vestit
V.I.P.

Inregistrat: acum 14 ani



Nechifor Lipan este un oier instarit din Magura Tracului si sotul Vitoriei Lipan. El pleaca la Dormna sa cumpere oi pe care sa le duca apoi la iernat. Vremea incepe sa se schimbe, se paropie anotimpul rece, iar Vitoria isi pregateste gospodaria pt iarna, ingrijorata fiind din ce in ce mai tare de intarzierea neobisnuita a sotului ei. De aceea merge la preotul Danila, caruia ii destainuie necazul ei si ii cere sfatul. Singurul lucru cu care preotul o poate ajuta pe Vitoria este sa faca o slujba si sa ii scrie o scrisaore din partea ei lui Gheorghita, care se afla la Cristesti, in valea Jijiei cu oile la ierntat, in care sa il anunte de disparitia tatalui acestuia.
Timpul trece se se apropie sarbatorile de iarna, Gheorghita se intoarce acasa, iar Vitoria hotaraste, initial sa-l trimita in cautarea celui disparut, considera apoi ca baiatul are nevoie de experienta ei si decide sa mearga impreuna pe urmele lui Nechifor iar apoi pe urmele ucigasiilor lui dorind sa ii pedepseasca.

Download :
FBX : ...
DUMP.RO : ...
NETDRIVE.WS : ...

LE: Expirate


pus acum 11 ani
Site  
brutus vmd
Rock & Ride

Inregistrat: acum 15 ani
Baltagul (1969)




mirror
http://fbx.ro/...

am pus si eu mirror pe filebox,cu toate ca mai exista unul,cel al lui camatar_vestit[varianta lui are 649.88 MB,iar a mea are 690.63 MB]

LE: Expirate


_______________________________________


=======================================================

=======================================================

pus acum 11 ani
   
XyJluGaH_
Membru Gold

Inregistrat: acum 10 ani
mult aşteptatul DVD (în orice caz pentru mine)
încărcat pe rapidshare. din păcate am împărţit pe file de 2GB , aşa că filele sunt disponibile doar pentru utilizatorii rapidului cu premium.

Despre film:
Soţia (Margarita Lozano) unui cioban (Ilarion Ciobanu) dispărut în imprejurări neelucidate ia urma făptaşilor, restabileşte adevărul şi îi pedepseşte pe asasini.

Ecranizarea romanului cu acelaşi nume de Mihail Sadoveanu. Coproducţie româno-italiană.

MediaInfo :

General
Complete name                    : D:\TMD\Baltagul DVD\VTS_01_1.VOB
Format                           : MPEG-PS
File size                        : 1 023 MiB
Duration                         : 25mn 2s
Overall bit rate                 : 5 712 Kbps

Video
ID                               : 224 (0xE0)
Format                           : MPEG Video
Format version                   : Version 2
Format profile                   : E-mail >Format settings, BVOP            : Yes
Format settings, Matrix          : Default
Format settings, GOP             : M=3, N=12
Duration                         : 25mn 2s
Bit rate mode                    : Variable
Bit rate                         : 5 406 Kbps
Nominal bit rate                 : 8 500 Kbps
Width                            : 720 pixels
Height                           : 576 pixels
Display aspect ratio             : 4:3
Frame rate                       : 25.000 fps
Standard                         : PAL
Color space                      : YUV
Chroma subsampling               : 4:2:0
Bit depth                        : 8 bits
Scan type                        : Interlaced
Scan order                       : Bottom Field First
Bits/(Pixel*Frame)               : 0.521
Stream size                      : 968 MiB (95%)

Audio
ID                               : 128 (0x80)
Format                           : AC-3
Format/Info                      : Audio Coding 3
Mode extension                   : CM (complete main)
Duration                         : 25mn 2s
Bit rate mode                    : Constant
Bit rate                         : 192 Kbps
Channel(s)                       : 2 channels
Channel positions                : Front: L R
Sampling rate                    : 48.0 KHz
Bit depth                        : 16 bits
Stream size                      : 34.4 MiB (3%)

Menu











Code:

http://rapidshare.com/...

LE: Expirate

Modificat de XyJluGaH_ (acum 9 ani)


pus acum 9 ani
   
bibescu
Moderator

Din: depĺrtare
Inregistrat: acum 13 ani

XyJluGaH_ a scris:

mult aşteptatul DVD (în orice caz pentru mine)
încărcat pe rapidshare. din păcate am împărţit pe file de 2GB , aşa că filele sunt disponibile doar pentru utilizatorii rapidului cu premium.

Code:

....



INFO / Imagini??? 

Ai 30 de min. sa iti completezi postul plus un Avertisment pentru necitirea Regulilor.

Data viitoare BAN.   


_______________________________________
Filme Romanesti facute format DVD de bibescu

#01 - Nunta de piatra (1972)
#02 - Independenta Romaniei (1912)
#04 - Sarutul (1965)
#05 - Un film cu o fata fermecatoare (1966)
#06 - Acordati circumstante atenuante? (1984)
#07 - Mireasa din tren (1980)
#08 - Secretul cifrului (1959)
La filmele romanesti avem CATALOG. Se admite doar un topic pe film.

pus acum 9 ani
   
XyJluGaH_
Membru Gold

Inregistrat: acum 10 ani

bibescu a scris:



INFO / Imagini??? 

Ai 30 de min. sa iti completezi postul plus un Avertisment pentru necitirea Regulilor.

Data viitoare BAN.   




e bine aşa ?


P.S: nu era necesar să fii aşa de dur, regulile le-am citit, doar că după postarea linkurilor m-a sunat un prieten şi nu am reuşit să adaug şi imaginile imediat. 


pus acum 9 ani
   
cinefilu' 2008
Membru Senior

Inregistrat: acum 12 ani
Baltagul (1969)





Info: http://www.imdb.com/title/tt0064063/
        http://www.cinemagia.ro/filme/baltagul-156/
Gen:  Drama 
Format: DVD 5
Mărime fişier: 4.15 GB
Sursa: CINEMAGIX DVD RETAIL
Regia: Mircea Muresan
Cu: Margarita Lozano, Sidonia Manolache, Folco Lulli
Durata: 103 minute
Încărcat pe: http://www.filefactory.com/member/refer/dIexyH8



Sinopsis:


Sotia (Margarita Lozano) unui cioban (Ilarion Ciobanu) disparut in imprejurari neelucidate ia urma faptasilor, restabileste adevarul si ii pedepseste pe asasini.
Ecranizarea romunului cu acelasi nume de Mihail Sadoveanu. Coproductie romano-italiana.


Download Link :


http://www.filefactory.com/...
LE: Expirat


_______________________________________
Pentru cont premium FileFactory : aici
Pentru cont premium TurboBit : aici
Pentru a descarca mai rapid folositi Mipony: aici

pus acum 8 ani
   
Zuzuitu
Membru Puf

Inregistrat: acum 7 ani
Release:

Code:

Baltagul.1969.DVDRip.x264.AAC.Zuzuitu

Info:

Code:

General
Format                                   : MPEG-4
Format profile                           : Base Media
Codec ID                                 : isom
File size                                : 1.04 GiB
Duration                                 : 1h 44mn
Overall bit rate mode                    : Variable
Overall bit rate                         : 1 432 Kbps
Movie name                               : Baltagul__1969_
Writing application                      : Lavf54.46.100

Video
ID                                       : 1
Format                                   : AVC
Format/Info                              : Advanced Video Codec
Format profile                           : Baseline@L3.0
Format settings, CABAC                   : No
Format settings, ReFrames                : 6 frames
Format settings, GOP                     : M=1, N=60
Codec ID                                 : avc1
Codec ID/Info                            : Advanced Video Coding
Duration                                 : 1h 43mn
Bit rate                                 : 1 299 Kbps
Width                                    : 720 pixels
Height                                   : 406 pixels
Display aspect ratio                     : 16:9
Original display aspect ratio            : 16:9
Frame rate mode                          : Constant
Frame rate                               : 25.000 fps
Color space                              : YUV
Chroma subsampling                       : 4:2:0
Bit depth                                : 8 bits
Scan type                                : Progressive
Bits/(Pixel*Frame)                       : 0.178
Stream size                              : 966 MiB (91%)

Audio
ID                                       : 2
Format                                   : AAC
Format/Info                              : Advanced Audio Codec
Format profile                           : LC
Codec ID                                 : 40
Duration                                 : 1h 44mn
Bit rate mode                            : Variable
Bit rate                                 : 128 Kbps
Maximum bit rate                         : 131 Kbps
Channel(s)                               : 2 channels
Channel positions                        : Front: L R
Sampling rate                            : 44.1 KHz
Compression mode                         : Lossy
Stream size                              : 95.2 MiB (9%)

Screens:


Download Links:
UptoBox
BayFiles
FileFactory
Uploaded
Extabit
TurboBit
RapidGator
1Fichier
80Upload
BillionUploads
Free.fr
Netload
FileRio
UploadHero
Filecloud

Enjoy! 

LE: Expirate


pus acum 7 ani
   
gigel2010
Membru Puf

Inregistrat: acum 10 ani
Se poate reposta, va rog.

pus acum 6 ani
   
oblio
Membru Senior

Inregistrat: acum 13 ani
Baltagul 1969 DVDR.iso





Server1:

Code:

http://uptobox.com/003pxkkah9rr

Server2:

Code:

http://ba7heaic6c.1fichier.com

Baltagul 1969 DVDRip



Server1:

Code:

http://uptobox.com/wddxqou2w38s

Server2:

Code:

http://ulozto.net/xhFHDQhn/baltagul-1969-dvdrip-avi



_______________________________________
Pentru extragere arhive folositi 7-Zip
Pentru download multiplu si fara coduri captcha de pe ulozto.net, folositi FreeRapid Downloader
Fisierele mele pe uptobox: link Pe uptobox puteti vedea filmele si online daca apasati "Create streaming link"

pus acum 6 ani
   
danmadaus
Membru Junior

Din: Pitesti
Inregistrat: acum 11 ani
Va salut
Mai poate posta cineva filmul Baltagul in format dvd.
Cu mii de multumirii.


pus acum 4 ani
E-mail  
raganar
MEMBRU VIP

Din: Codlea
Inregistrat: acum 12 ani
Repostare DVD:

1 http://uptobox.com/d04e4pbpcrv5
2 http://uptobox.com/0ymuv2er7z50
3 http://uptobox.com/d8qlm4gp3uyn
4 http://uptobox.com/326oadrlxrjr
5 http://uptobox.com/gm2nb69frnsr
6 http://uptobox.com/gyrd5iu97klc
7 http://uptobox.com/a73ryiiutoth
8 http://uptobox.com/2kgf7fe2r6h9
9 http://uptobox.com/8actvf95vd7u


_______________________________________
Nu lasa pe maine ce poti face astazi, lasa pe poimaine ca poate nu mai e nevoie sa-l faci.
Micul fara mustar e ca barbatul fara femeie.

pus acum 4 ani
   
matuselem
Membru Junior

Inregistrat: acum 7 ani
Baltagul (1969)

www.imdb.com/title/tt0064063



Regia: Mircea Mureșan
Dupa romanul lui Mihail Sadoveanu
Distributia: Margarita Lozano, Sidonia Manolache, Folco Lulli, Paul Misai, Florin Scarlatescu, Anatol Constantin, Sandu Sticlaru, etc.
Gen: Dramă

Ecranizarea romanului cu acelasi nume de Mihail Sadoveanu, drama regizata de Mircea Muresan urmareste tragedia unui cioban disparut in imprejurari misterioase.
Sotia sa reface drumul parcurs de acesta cu turmele de oi si afla adevarul: barbatul a fost asasinat chiar de cei pe care ii credea aproape.
Cu indarjirea specifica unei femei de la munte, femeia restabileste adevarul si porneste pe urmele criminalilor.

https://www69.zippyshare.com/v/mCRL0tc3/file.html
https://www94.zippyshare.com/v/rU9kMNmp/file.html
https://www1.zippyshare.com/v/xLfl4Pr9/file.html

DVBRip
Audio: romana
Subtitrari: Alb., bul, cro., cze., gre., pol., rus., ser., tur, eng.



Modificat de matuselem (acum 2 ani)


pus acum 2 ani
   
nuPrea
Membru Puf

Inregistrat: acum 2 ani
Multumesc!

pus acum 2 ani
   
teodora36
MEMBRU VIP

Inregistrat: acum 13 ani
Mulțumesc frumos.

_______________________________________
Trebuie să ai coarne ca să reziști într-o cireadă!!!

PS - Aviz amatorilor.

pus acum 2 ani
   
plutoneru
Membru Junior

Inregistrat: acum 9 ani
Multumiri.

pus acum 2 ani
   
Pagini:  1 2    
Mergi la